Witamy na forum PC Format Zapraszamy do REJESTRACJI


Użytkownicy przeglądający ten wątek: 1 gości

Konfiguracja Pazera Free pod 480x800

#1
Konfiguracja Pazera Free pod 480x800
Kiedy przestawiam na 480x800 i 25 klatek to wyskakuje błąd. Jak dobrze skonfigurować by przekonwertować filmy na 480x800?
 System operacyjny: windows_vista Przeglądarka: chrome
#2
RE: Konfiguracja Pazera Free pod 480x800
Jaka to wersja ? (rozumiem że chodzi o Free Video 3GP Converter) Niestety ta najnowsza zawiera błąd uniemożliwiający konwersję. Mam gdzieś w archiwum starszą wersję bez tego błędu.
[Obrazek: userbarpcf.gif]
 System operacyjny: windows_xp_2003 Przeglądarka: firefox
#3
RE: Konfiguracja Pazera Free pod 480x800
Można prosić o upload?

Oto raport błędu: Error # 1
----------
Date & Time: 2011-06-02 / 18:34:28
ExitCode: 1
Input #0, avi, from 'D:\Filmy\Avatar [2009] [DVDRiP.XviD.AC3-MCK] [Lektor PL] [Arx]\Avatar [2009] [DVDRiP.XviD.AC3-MCK] [Lektor PL] [Arx].avi':
Duration: 02:35:05.08, start: 0.000000, bitrate: 1264 kb/s
Stream #0.0: Video: mpeg4, yuv420p, 608x336 [PAR 1:1 DAR 38:21], 25 tbr, 25 tbn, 25 tbc
Stream #0.1: Audio: ac3, 48000 Hz, 5.1, s16, 384 kb/s
[h263 At 0x304a100]The specified picture size of 608x336 is not valid for the H.263 codec.
Valid sizes are 128x96, 176x144, 352x288, 704x576, and 1408x1152. Try H.263+.
Output #0, 3gp, to 'D:\Filmy\Avatar [2009] [DVDRiP.XviD.AC3-MCK] [Lektor PL] [Arx]\Avatar [2009] [DVDRiP.XviD.AC3-MCK] [Lektor PL] [Arx].3gp':
Stream #0.0: Video: h263, yuv420p, 608x336 [PAR 1:1 DAR 38:21], q=2-31, 350 kb/s, 90k tbn, 25 tbc
Stream #0.1: Audio: libamr_nb, 8000 Hz, mono, s16, 7 kb/s
Stream mapping:
Stream #0.0 -> #0.0
Stream #0.1 -> #0.1
Error while opening codec for output stream #0.0 - maybe incorrect parameters such as bit_rate, rate, width or height
 System operacyjny: windows_vista Przeglądarka: chrome
Programy: Polecane / Nowe / Inne



Użytkownicy forum szukali:
pazera ustawienia

Podobne wątki (Konfiguracja Pazera Free pod 480x800)
Wątek: Autor Odpowiedzi: Wyświetleń: Ostatni post
  Promocje na komercyjne oprogramowanie do pobrania za free Illidan 351 220810 Wczoraj, 02:56
Ostatni post: Illidan
  Problem z zgrywaniem filmów DV na komputer w programie Free CUDA DVD Ripper 7 wilk09 1 3597 15.12.2018, 05:04
Ostatni post: Illidan
  CCleaner Free - Dokładne czyszczenie komputera. Download-er 62 15462 17.04.2016, 06:01
Ostatni post: broda99

Skocz do:


Wybrane wątki (Konfiguracja Pazera Free pod 480x800)
Wątek: Autor Odpowiedzi: Wyświetleń: Ostatni post
Sad WORD opublikował mi pracę licencjacką w internecie, jeszcze przed obroną??? Lukaskov 2 4317 03.06.2018 14:02
Ostatni post: jacob1
  Problem z Win 10 na SSD QuickSilver323 11 10170 03.06.2018 01:39
Ostatni post: Illidan
  Brak dźwięku - słuchawki JBL450BT Ashe 1 3720 31.05.2018 17:47
Ostatni post: Illidan
  Zmiana komputera a klucz produktu Squeazz 2 4432 30.05.2018 22:48
Ostatni post: pieterman09
  Wyskakuje mi Reboot and select... szuler 2 4014 30.05.2018 08:37
Ostatni post: szuler
  Dziwny problem - wxWidgets Debug Alert akdpower 4 3942 30.05.2018 06:36
Ostatni post: kamel16
  wysoki spadek fpsów maciomen201 16 8364 29.05.2018 19:47
Ostatni post: kamel16
  Truecrypt i odszyfrowanie partycji botnaizi 15 19848 25.05.2018 16:54
Ostatni post: broda99
  kompilacja 7601 windows 7 Home Premium - 64-bitowy dawiator 2 6654 24.05.2018 23:37
Ostatni post: dawiator
Exclamation Nie działa żadna gra janluckar 3 4408 24.05.2018 22:42
Ostatni post: kamel16
  Ciągły restart komputera valentine28 4 4359 21.05.2018 17:49
Ostatni post: valentine28
  Radeon HD6850 nietypowy problem przy uruchomieniu windowsa. cherbi 3 839 19.05.2018 18:14
Ostatni post: kamel16
  Odzyskanie trwale usuniętych plików z dysku twardego [wydzielone] Loczek4 6 1604 15.05.2018 15:06
Ostatni post: Fix00ser
  Windows 10, 98-99% użycia dysku Oskier 4 3215 15.05.2018 02:01
Ostatni post: Illidan
  Wolne pobieranie przez Total Commander przez FTP raxer 14 3424 14.05.2018 20:17
Ostatni post: raxer