Witamy na forum PC Format Zapraszamy do REJESTRACJI


Użytkownicy przeglądający ten wątek: 1 gości

Sony Vegas konwersja filmiku z Fraps na YouTube - jaki format?

#1
Sony Vegas konwersja filmiku z Fraps na YouTube - jaki format?
Cześć Beer

Gdy ściągnę na dysk jakiś filmik 1080p z YouTube (np. http://www.youtube.com/watch?v=oH5VHNNPf2I ), mimo niskiego bitrate (2546 kb/s) jest on świetnej jak na ten portal jakości. Natomiast ja w Sony Vegas podobną (nie lepszą, wydaje mi się nawet, że gorszą, gdyż momentami dostrzegam "rozpikselowywanie" się fragmentów obrazu) jakość uzyskuję przy 10-krotnie większym bitrate, przez co zarówno czas kompilacji jak i uploadu jest dość spory, a potem YouTube i tak konwertuje ten filmik po swojemu.

Jakie opcje są optymalne w SonyVegas do wyrenderowania materiału 1080p na YouTube?

Poniżej podam parametry ściągniętego trailera GTA V oraz mojego pliku. Proszę nie sugerować się znaczną różnicą długości obu filmików. Minuta wyrenderowanego przeze mnie materiału z racji większego bitrate waży znacznie więcej, niż minuta materiału ściągniętego z YouTube, a chcę uzyskać taką samą jakość, jak trailer GTA V przy małym bitrate i, co za tym idzie, rozmiarze pliku. Konwertuję oczywiście z materiału nieskompresowanego nagranego programem Fraps. Nie występuje w nim żadne rozpikselowanie itp. rzeczy.

Kod:
General
Complete name                  : C:\Users\dziekizapomocpcformat\trailer GTA V
Format                         : MPEG-4
Format profile                 : Base Media
Codec ID                       : isom
File size                      : 28.4 MiB
Duration                       : 1mn 29s
Overall bit rate               : 2 681 Kbps
Writing application            : Lavf55.19.102

Video
ID                             : 1
Format                         : AVC
Format/Info                    : Advanced Video Codec
Format profile                 : High@L4.0
Format settings, CABAC         : Yes
Format settings, ReFrames      : 2 frames
Codec ID                       : avc1
Codec ID/Info                  : Advanced Video Coding
Duration                       : 1mn 28s
Bit rate                       : 2 550 Kbps
Width                          : 1 920 pixels
Height                         : 1 080 pixels
Display aspect ratio           : 16:9
Frame rate mode                : Constant
Frame rate                     : 29.970 fps
Color space                    : YUV
Chroma subsampling             : 4:2:0
Bit depth                      : 8 bits
Scan type                      : Progressive
Bits/(Pixel*Frame)             : 0.041
Stream size                    : 27.0 MiB (95%)

Audio
ID                             : 2
Format                         : AAC
Format/Info                    : Advanced Audio Codec
Format profile                 : LC
Codec ID                       : 40
Duration                       : 1mn 29s
Bit rate mode                  : Constant
Bit rate                       : 126 Kbps
Channel count                  : 2 channels
Channel positions              : Front: L R
Sampling rate                  : 44.1 KHz
Compression mode               : Lossy
Stream size                    : 1.33 MiB (5%)

Kod:
General
Complete name                  : C:\Users\dziekizapomocpcformat\mójplik
Format                         : MPEG-4
Format profile                 : Base Media / Version 2
Codec ID                       : mp42
File size                      : 1.60 GiB
Duration                       : 11mn 19s
Overall bit rate mode          : Constant
Overall bit rate               : 20.2 Mbps
Encoded date                   : UTC 2014-11-05 14:01:11
Tagged date                    : UTC 2014-11-05 14:01:11

Video
ID                             : 2
Format                         : AVC
Format/Info                    : Advanced Video Codec
Format profile                 : Main@L4.2
Format settings, CABAC         : Yes
Format settings, ReFrames      : 3 frames
Codec ID                       : avc1
Codec ID/Info                  : Advanced Video Coding
Duration                       : 11mn 19s
Bit rate mode                  : Constant
Bit rate                       : 20.0 Mbps
Width                          : 1 920 pixels
Height                         : 1 080 pixels
Display aspect ratio           : 16:9
Frame rate mode                : Constant
Frame rate                     : 29.970 fps
Standard                       : NTSC
Color space                    : YUV
Chroma subsampling             : 4:2:0
Bit depth                      : 8 bits
Scan type                      : Progressive
Bits/(Pixel*Frame)             : 0.161
Stream size                    : 1.58 GiB (99%)
Language                       : English
Encoded date                   : UTC 2014-11-05 14:01:11
Tagged date                    : UTC 2014-11-05 14:01:11

Audio
ID                             : 1
Format                         : AAC
Format/Info                    : Advanced Audio Codec
Format profile                 : LC
Codec ID                       : 40
Duration                       : 11mn 19s
Bit rate mode                  : Constant
Bit rate                       : 192 Kbps
Channel count                  :  channel0
Original Channel count         : 2 channels
Channel positions              : Front: L R
Sampling rate                  : 48.0 KHz
Compression mode               : Lossy
Stream size                    : 15.6 MiB (1%)
Language                       : English
Encoded date                   : UTC 2014-11-05 14:01:11
Tagged date                    : UTC 2014-11-05 14:01:11
 System operacyjny: windows_seven Przeglądarka: chrome
#2
RE: Sony Vegas konwersja filmiku z Fraps na YouTube - jaki format?
ten drugi plik to jest plik nagrany frapsem czy jakiś montaż?

Nie jestem ekspertem Vegasa, bo z resztą sam preferuje Final Cut i Adobe Premiere, ale ja swoje filmiki eksportuje do .mov. Nie wiem czy w vegasie jest taki format ale być może da się go pobrać.

Nie traktuj tylko mojej wypowiedzi zbyt poważnie bo w Vegasie nigdy dłużej nie pracowałem. Toporność i paskudny interfejs tego programu skutecznie mnie do niego zniechęciły, pomijając już platformę na której vegas jest.

Pozdrawiam.
Pozdrawiam Chytry
 System operacyjny: macos Przeglądarka: safari
Programy: Polecane / Nowe / Inne



Użytkownicy forum szukali:
sony vegas do youtube

Podobne wątki (Sony Vegas konwersja filmiku z Fraps na YouTube - jaki format?)
Wątek: Autor Odpowiedzi: Wyświetleń: Ostatni post
Question Film z "YouTube" na DVD i problemy z odtwarzaniem na "SONY RDR-AT100". Przyczyna? ~Anonim 5 7098 16.08.2018, 05:53
Ostatni post: ~Anonim
  Sony Vegas 15 Błąd obrazu / przycina obraz wloo 0 6236 12.04.2018, 20:19
Ostatni post: wloo
  Eksport wielu ścieżek audio z filmiku Grzesiek11 1 6825 21.12.2017, 16:11
Ostatni post: Grzesiek11

Skocz do:


Wybrane wątki (Sony Vegas konwersja filmiku z Fraps na YouTube - jaki format?)
Wątek: Autor Odpowiedzi: Wyświetleń: Ostatni post
  Kamera monitoringu, problem z połączeniem. krakow2000 1 8942 22.01.2019 14:55
Ostatni post: Efisk_pl
  glosniki w granicach 1000zl lukasz997 1 8829 22.01.2019 14:54
Ostatni post: Efisk_pl
  Kamera sportowa dla dziecka sledzik 1 8872 22.01.2019 14:52
Ostatni post: Efisk_pl
  telewizor do 1000 zł (najlepiej 43 cale) jakub777 6 8434 22.01.2019 14:50
Ostatni post: Efisk_pl
  Kamera Full HD - 1080p irask2 3 8290 22.01.2019 14:46
Ostatni post: Efisk_pl
  Pilne. Którą kamerę wybrać? SC501 czy SC701 kileras1 5 9009 22.01.2019 14:43
Ostatni post: Efisk_pl
  Jaki subwoofer do samochodu Golf VI z fabr. audio Łuk@sz 7 7894 20.01.2019 15:14
Ostatni post: Łuk@sz
  Aplikacja do zrobienia filmu ze zdjęć Movie Editor Izka1985 0 6754 11.01.2019 14:49
Ostatni post: Izka1985
  Przystawka Smart TV co kupić ? ~Anonim 12 15846 04.01.2019 20:38
Ostatni post: muzyk219
  Telewizor 40" do 1500 zł panaho 12 16939 05.12.2018 11:02
Ostatni post: Ajgor
  Jak wkleic na stale napisy do filmow Paszkov 14 42693 01.12.2018 16:51
Ostatni post: Lexan
Sad Edycja scen w filmie Blu Ray i 4K SHINGO 0 6937 29.11.2018 21:10
Ostatni post: SHINGO
Sad Eksport ścieżki dźwiękowej z formatu Blu Ray SHINGO 1 6742 24.11.2018 13:57
Ostatni post: Ajgor
  Wzmacniacz do Teufel Ultima 40 Mk2 Blaster 0 7371 18.11.2018 22:13
Ostatni post: Blaster
  Karta pamięci pod GoPro Hero 7 Black EDiXior 5 16861 18.11.2018 17:09
Ostatni post: gopro7