Witamy na forum PC Format Zapraszamy do REJESTRACJI


Użytkownicy przeglądający ten wątek: 1 gości

Film klatkuje w tv

#1
Film klatkuje w tv
Mam film i w komputerze normalnie odtwarza a na tv (jak podłącze pod dekoder), też idzie ale się klatkuje (takie kwadraciki latają)
Film jest w formacie avi.
We właściwościach sprawdzałem ma 25kl/s

Macie pomysł jak temu zaradzić inne filmy które miałem normalnie działały.

http://rmc-audio.com/288,tuner-hd-dvb-t-...00188.html
To jest dekoder

Informacje z mediainfo może się przydadzą.
Cytat:Format : AVI
Format/Info : Audio Video Interleave
File size : 697 MiB
Duration : 1h 7mn
Overall bit rate : 1 439 Kbps
Writing application : Nandub v1.0rc2
Writing library : Nandub build 1852/release

Video
ID : 0
Format : MPEG-4 Visual
Format settings, BVOP : 1
Format settings, QPel : No
Format settings, GMC : 2 warppoints
Format settings, Matrix : Default (H.263)
Codec ID : DX50
Codec ID/Hint : DivX 5
Duration : 1h 7mn
Bit rate : 981 Kbps
Width : 640 pixels
Height : 368 pixels
Display aspect ratio : 1.739
Frame rate : 25.000 fps
Color space : YUV
Chroma subsampling : 4:2:0
Bit depth : 8 bits
Scan type : Progressive
Compression mode : Lossy
Bits/(Pixel*Frame) : 0.167
Stream size : 475 MiB (68%)
Writing library : DivX 5.0.0 (UTC 2002-03-04)

Audio
ID : 1
Format : AC-3
Format/Info : Audio Coding 3
Mode extension : CM (complete main)
Format settings, Endianness : Big
Codec ID : 2000
Duration : 1h 7mn
Bit rate mode : Constant
Bit rate : 448 Kbps
Channel(s) : 6 channels
Channel positions : Front: L C R, Side: L R, LFE
Sampling rate : 48.0 KHz
Bit depth : 16 bits
Compression mode : Lossy
Delay relative to video : 400ms
Stream size : 217 MiB (31%)
Alignment : Split accross interleaves
Interleave, duration : 40 ms (1.00 video frame)
Interleave, preload duration : 500 ms
 System operacyjny: windows_xp_2003 Przeglądarka: chrome
#2
RE: Film klatkuje w tv
Przypuszczam, że problemem jest:
Audio
Bit rate : 448 Kbps

Zrób konwersję audio do MP3 192 Kbps
"Mądry nauczy się więcej z głupiego pytania,
niż głupiec z mądrej odpowiedzi"
Nie pomagam na PW, od pomocy jest forum !




 System operacyjny: windows_seven Przeglądarka: firefox
#3
RE: Film klatkuje w tv
Podziałało Wesoły
 System operacyjny: windows_xp_2003 Przeglądarka: chrome
#4
RE: Film klatkuje w tv
Nie będę zakładał nowego tematu bo problem jest podobny. 

Tyle że chodzi o taki film:
Spoiler
General

Complete name                            : C:\Documents and Settings\Właściciel\Pulpit\The.Fast.and.the.Furious.2001.PL.DVDRip.XviD-J25000.avi
Format                                   : AVI
Format/Info                              : Audio Video Interleave
File size                                : 685 MiB
Duration                                 : 1h 37mn
Overall bit rate                         : 988 Kbps
Writing application                      : VirtualDubMod 1.5.10.2 (build 2542/release)
Writing library                          : VirtualDubMod build 2542/release

Video
ID                                       : 0
Format                                   : MPEG-4 Visual
Format settings, BVOP                    : 1
Format settings, QPel                    : No
Format settings, GMC                     : No warppoints
Format settings, Matrix                  : Default (H.263)
Muxing mode                              : Packed bitstream
Codec ID                                 : DX50
Codec ID/Hint                            : DivX 5
Duration                                 : 1h 37mn
Bit rate                                 : 855 Kbps
Width                                    : 616 pixels
Height                                   : 264 pixels
Display aspect ratio                     : 2.35:1
Frame rate                               : 25.000 fps
Color space                              : YUV
Chroma subsampling                       : 4:2:0
Bit depth                                : 8 bits
Scan type                                : Progressive
Compression mode                         : Lossy
Bits/(Pixel*Frame)                       : 0.210
Stream size                              : 593 MiB (87%)
Writing library                          : DivX 6.8.0 (UTC 2007-12-04)

Audio
ID                                       : 1
Format                                   : MPEG Audio
Format version                           : Version 1
Format profile                           : Layer 3
Codec ID                                 : 55
Codec ID/Hint                            : MP3
Duration                                 : 1h 36mn
Bit rate mode                            : Constant
Bit rate                                 : 128 Kbps
Channel(s)                               : 2 channels
Sampling rate                            : 48.0 KHz
Compression mode                         : Lossy
Delay relative to video                  : 4ms
Stream size                              : 88.8 MiB (13%)
Alignment                                : Split accross interleaves
Interleave, duration                     : 9984 ms (249.61 video frames)
Interleave, preload duration             : 250 ms
Writing library                          : LAME3.98.4ŞŞŞŞŞ




Na tym dekoderze ("nie obsługiwany typ/format audio) podłączonym do innego tv niż niżej podałem.
http://www.rs-com.pl/cyfrowa-telewizja-n...amatz.html


Na tym tv pisze że "nie obsługiwany typ/format wideo"
http://www.x-kom.pl/p/68952-telewizor-lc...8-led.html
 System operacyjny: windows_xp_2003 Przeglądarka: chrome
Programy: Polecane / Nowe / Inne




Podobne wątki (Film klatkuje w tv)
Wątek: Autor Odpowiedzi: Wyświetleń: Ostatni post
Question Film z "YouTube" na DVD i problemy z odtwarzaniem na "SONY RDR-AT100". Przyczyna? ~Anonim 5 8219 16.08.2018, 05:53
Ostatni post: ~Anonim
  Film -jak zrobic efekt wichury kubasek2001 1 6663 26.03.2017, 17:19
Ostatni post: Ajgor
  jak zapisać film na dysk dlprezes 1 8750 03.04.2016, 18:26
Ostatni post: Pan.Jan

Skocz do:


Wybrane wątki (Film klatkuje w tv)
Wątek: Autor Odpowiedzi: Wyświetleń: Ostatni post
  Telewizor do 1000 zł andrzejaa97 1 7827 08.09.2018 19:20
Ostatni post: Lexan
  Jaki rejestrator do kamer ? Michas7 0 8008 06.09.2018 13:15
Ostatni post: Michas7
  Słaba jakość nagrań mikrofon audio technica 3350 dexiuu 0 8260 05.09.2018 17:27
Ostatni post: dexiuu
  Jak nagrac muzyke na plyte CD do samochodu [wydzielone] vrixemn 2 9143 03.09.2018 20:13
Ostatni post: Lexan
  Telewizor do 2500 (do 50") Sergiosik 5 10072 20.08.2018 22:58
Ostatni post: Lexan
Question Film z "YouTube" na DVD i problemy z odtwarzaniem na "SONY RDR-AT100". Przyczyna? ~Anonim 5 8219 16.08.2018 05:53
Ostatni post: ~Anonim
Ściana Telewizor LG 49UF680V i problem z DAC CREATIVE_ 1 8280 15.08.2018 13:36
Ostatni post: CREATIVE_
Ściana TV Samsung ue32j5100aw - Przypisywanie kanałów SHINGO 1 1403 14.08.2018 22:55
Ostatni post: Lexan
  Led pod głośniki/subwoofer ~Anonim 0 8179 14.08.2018 21:41
Ostatni post: ~Anonim
  TV 32 cale - hd ready czy full hd? gamepatryk 11 17034 13.08.2018 00:38
Ostatni post: Lexan
  monitoring prywatny Jarek1104 0 7697 09.08.2018 10:27
Ostatni post: Jarek1104
Ściana Tworzenie płyty blu ray na nośniku 8,5 GB SHINGO 2 10679 08.08.2018 23:13
Ostatni post: SHINGO
Question Które słuchawki lepsze do mp3: "SONY MDR-V150" czy "PHILIPS SHL5000/00" (do 80 zł.)? ~Anonim 0 7731 08.08.2018 14:21
Ostatni post: ~Anonim
  Mikrofon, uchwyt, osłona do nagrywania w domu. kileras1 0 1239 07.08.2018 14:51
Ostatni post: kileras1
  Telewizor LG 4K czy Samsung 3D Ajgor 12 15039 31.07.2018 21:29
Ostatni post: Ajgor