Witamy na forum PC Format Zapraszamy do REJESTRACJI


Użytkownicy przeglądający ten wątek: 1 gości

Problemy z konwersją filmów - nie mogę konwertować filmów

#1
Problemy z konwersją filmów - nie mogę konwertować filmów
Witam mam pewien problem z próbą konwersji filmów.
Gdy próbuje skonwertować byle jaki film to wyskakują mi błędy lub nie chce się wcale skonwertować.
W wondershare video converter mam cały czas napis czekaj.
w Xilisoft Video Converter Ultimate wyskakuje mi appcrash:

Podpis problemu:
Nazwa zdarzenia problemu: APPCRASH
Nazwa aplikacji: avc.exe
Wersja aplikacji: 1.0.7.1219
Sygnatura czasowa aplikacji: 50e79abb
Nazwa modułu z błędem: MSVCR90.dll
Wersja modułu z błędem: 9.0.30729.6161
Sygnatura czasowa modułu z błędem: 4dace5b9
Kod wyjątku: c0000005
Przesunięcie wyjątku: 0003ae7a
Wersja systemu operacyjnego: 6.1.7601.2.1.0.256.1
Identyfikator ustawień regionalnych: 1045
Dodatkowe informacje 1: 0a9e
Dodatkowe informacje 2: 0a9e372d3b4ad19135b953a78882e789
Dodatkowe informacje 3: 0a9e
Dodatkowe informacje 4: 0a9e372d3b4ad19135b953a78882e789

Przeczytaj w trybie online nasze zasady zachowania poufności informacji:
http://go.microsoft.com/fwlink/?linkid=1...cid=0x0415

Jeśli zasady zachowania poufności informacji w trybie online nie są dostępne, przeczytaj nasze zasady zachowania poufności informacji w trybie offline:
C:\Windows\system32\pl-PL\erofflps.txt



w szczegółach konwertowania:

Input #0, flv, from 'W:\WWWWWW\WWW\WWWWWW.flv':
Duration: 01:48:17.28, start: 0.040000, bitrate: 269 kb/s, rotation: 0.00��
Stream #0.0(): Video: h264 (High), yuv420p, 640x272, 184 kb/s, 25 fps, 25 tbr, 1k tbn, 25 tbc
Stream #0.1(): Audio: mpeg4aac, 44100 Hz, stereo, 82 kb/s
Output #0, avi, to 'W:\WWW\WWWWW.avi':
Stream #0.0(): Video: h264, yuv420p, 1920x1080, q=2-31, 6300 kb/s, 25 tbn, 25 tbc
Stream #0.1(): Audio: mp3, 44100 Hz, stereo, 320 kb/s
Stream mapping:
Stream #0.0 -> #0.0
Stream #0.1 -> #0.1
Internal buffer inconsistency. flushbits <> ResvSizebit reservoir error:
l3_side->main_data_begin: 4432
Resvoir size: -94576
resv drain (post) -5
resv drain (pre) 0
header and sideinfo: 288
data bits: 6800
total bits: 7083 (remainder: 3)
bitsperframe: 8360
This is a fatal error. It has several possible causes:90 0X0.005A00P-1022ME compiled with buggy version of gcc using advanced optimizations 9Your system is overclocked 1bug in LAME encoding libraryInternal buffer inconsistency. flushbits <> ResvSizebit reservoir error:
l3_side->main_data_begin: 5576
Resvoir size: -93368
resv drain (post) -6
data bits: 5655
total bits: 5937 (remainder: 1)


Total Video Convert zatrzymuje się na 2%.

Pomoże ktoś ? czego może to być wina ?
 System operacyjny: windows_seven Przeglądarka: firefox
#2
RE: Problemy z konwersją filmów - nie mogę konwertować filmów
Witam!

Ja polecam od siebie program "Format Factory".
Sam go używam - i w sumie nigdy mnie nie zawiódł.
 System operacyjny: windows_98_nt Przeglądarka: firefox
Programy: Polecane / Nowe / Inne



Użytkownicy forum szukali:
action błąd konwersji c00005błedy z konwersją filmuNazwa modułu z błędem: MSVCR90.dll

Podobne wątki (Problemy z konwersją filmów - nie mogę konwertować filmów)
Wątek: Autor Odpowiedzi: Wyświetleń: Ostatni post
  Problem z konwersją pliku (DivX) aby działał na otwarzaczu dorion300 4 7756 18.04.2016, 23:28
Ostatni post: dorion300
  Problem z konwersją AVI do MP4 Skitter 3 5129 05.03.2015, 23:54
Ostatni post: Lexan
  Czy można konwertować pliki animowane do formatów video ? Savage 7 2857 21.02.2014, 21:37
Ostatni post: adom

Skocz do:


Wybrane wątki (Problemy z konwersją filmów - nie mogę konwertować filmów)
Wątek: Autor Odpowiedzi: Wyświetleń: Ostatni post
  Co zamiast Canona 100D eremo 0 6041 16.11.2018 20:39
Ostatni post: eremo
  krótki kabel do słuchawek zielono_mi 1 6713 27.10.2018 17:43
Ostatni post: Lexan
  Jakie słuchawki Bluetooth? Lexan 6 7588 09.10.2018 19:51
Ostatni post: Lexan
  zrobienie projektu psd z wizytówki Jarek1104 0 7128 01.10.2018 14:57
Ostatni post: Jarek1104
  Telewizor z Ambilight do 3000 zł Łuk@sz 0 7084 30.09.2018 22:08
Ostatni post: Łuk@sz
  Odtwarzacz MP3 do 200zł Baero 2 7564 26.09.2018 19:44
Ostatni post: Lexan
  Jak z jednego dźwięku zrobić muzykę kacpereu 2 7104 23.09.2018 10:03
Ostatni post: kacpereu
  iTunes - MP3 a porządek w bibliotece Jaszq06 1 7382 21.09.2018 19:52
Ostatni post: Lexan
  Sony Bravia problem z dekoderem ICU-100 Slave 0 7008 14.09.2018 12:00
Ostatni post: Slave
  Słabo mnie słychać w grach. Asim346 2 7889 13.09.2018 16:45
Ostatni post: Lexan
  Bezprzewodowe głośniki do 400 zł Ronaldi 2 10116 11.09.2018 11:26
Ostatni post: beatricia
  multiroom antena plus multiswitch czy bez multiswitcha peterrek 0 7097 09.09.2018 17:37
Ostatni post: peterrek
  Telewizor do 1000 zł andrzejaa97 1 6285 08.09.2018 19:20
Ostatni post: Lexan
  Jaki rejestrator do kamer ? Michas7 0 6566 06.09.2018 13:15
Ostatni post: Michas7
  Słaba jakość nagrań mikrofon audio technica 3350 dexiuu 0 6774 05.09.2018 17:27
Ostatni post: dexiuu